空天猎.Sky Hunter.2017.CN.BluRay.1920x802p.x264.TrueHD5.1-KOOK.[中英双字] 11.7GB 2017 大陆 战争 BD-1080P

admin 5天前 14 只看Ta

空天猎.Sky Hunter.2017.CN.BluRay.1920x802p.x264.TrueHD5.1-KOOK.[中英双字] 11.7GB

 

 

无广告,无水印,独家中英双字幕
不定时做种,保证出种,请耐心等待.

 

 

 

 

※※※※※※※ 影片信息 ※※※※※※※

◎片   名 空天猎
◎译   名 霸天狼 / Sky Hunter
◎年   代 2017
◎国   家 中国
◎类   别 剧情 / 动作 / 战争
◎语   言 普通话
◎上映日 期 2017-09-29(中国大陆)
◎字   幕 中英双字/简体字幕/繁体字幕/英文字幕
◎IMDB 评分  /10 from  users
◎豆瓣 评分  5.1/10 from 44166 users
◎视频尺 寸  1920x802p
◎片   长 1.55.06
◎导   演 李晨
◎编   剧  李晨 / 张力 / 刘毅 / 高岩 / 褚翔宇
◎主   演 李晨 / 范冰冰 / 王千源 / 李佳航 / 赵达

 

 
◎简  介


  一场空天战场的猎杀传奇。霸天狼,一支神秘的空军顶级团队,每一名飞行员都是“金头盔” 级别的王牌飞行员,吴迪(李晨 饰)、亚莉(范冰冰 饰)、巴图(郭洺宇 饰)、高原(李晨浩 饰)通过层层考核,成为了霸天狼秘密基地的一员。可谁也没有想到,吴迪的好友浩辰(李佳航 饰)却在任务中陷入一场境外战乱的阴谋。更大的威胁接踵而至,恐怖势力突 发其来的导弹危机和人质危机,空前地挑战着中国空军的实战能力!十万火急之下,最新式 的中国战机和最顶级的飞行员,与掌握导弹密码和先进战机的敌人,在境外天空展开一场生死对决......


拍摄过程
《空天猎》从筹备到杀青共历时两年,其中演员的戏拍了148天,拍摄过程中,剧组共辗转国内外13个省市,空军部队协助进行勘景,取景拍摄。阿拉善石头城沙漠、张家口雪域到空军驻各省部队,剧组还远赴哈萨克斯坦进行实景拍摄,从雪地到沙漠,横跨大半个中国,总行程长达33405公里,其中经历的极端恶劣的天气和超难度  。
空中镜头
影片中,空中飞行的镜头,60%是实拍,都是空军最优秀的飞行员在给演员们做飞行替身,而且有的空中实拍,剧组的摄影师是不能操作,因为战斗机的飞行过载是非常高的,甚至能达到9G,正常人1.5G就晕厥了,所以那时候都是空军客串摄影师拍的,剧组把需要的镜头预览做出来,然后飞行员根据剧组要的而效果来设计飞行。剧组把运-8运输机飞到三千米高空,后舱打开,架个机器,战斗机在后面根据剧组要求去飞动作

※※※※※※※ 参数信息 ※※※※※※※

 

 

General
Unique ID                      : 180558162468724286559801804842488336568 (0x87D63CB7D788726D9AC47F46BDD090B8)

Format                         : Matroska
Format version                 : Version 4 / Version 2
File size                      : 11.8 GiB
Duration                       : 1 h 55 min
Overall bit rate mode          : Variable
Overall bit rate               : 14.6 Mb/s
Movie name                     : kook
Encoded date                   : UTC 2018-04-14 16:00:33
Writing application            : mkvmerge v9.4.2 ('So High') 64bit
Writing library                : libebml v1.3.4 + libmatroska v1.4.5
Attachments                    : 正式海报.jpg / fzlbjw.ttf / fzgljw.ttf / fzlbfw.ttf

Video
ID                             : 1
Format                         : AVC
Format/Info                    : Advanced Video Codec
Format profile                 : High@L4.1
Format settings, CABAC         : Yes
Format settings, ReFrames      : 5 frames
Codec ID                       : V_MPEG4/ISO/AVC
Duration                       : 1 h 55 min
Bit rate                       : 11.5 Mb/s
Width                          : 1 920 pixels
Height                         : 802 pixels
Display aspect ratio           : 2.40:1
Frame rate mode                : Constant
Frame rate                     : 24.000 FPS
Color space                    : YUV
Chroma subsampling             : 4:2:0
Bit depth                      : 8 bits
Scan type                      : Progressive
Bits/(Pixel*Frame)             : 0.311
Stream size                    : 9.21 GiB (78%)
Writing library                : x264 core 129 r2245+704+36 8e61944 tMod+MixAQ [8-bit@4:2:0 X86_64]
Encoding settings              : cabac=1 / ref=5 / deblock=1:-3:-3 / analyse=0x3:0x133 / me=umh / subme=11 / psy=1 / fade_compensate=0.00 / psy_rd=1.05:0.10 / mixed_ref=1 / me_range=64 / chroma_me=1 / trellis=2 / 8x8dct=1 / cqm=0 / deadzone=21,11 / fast_pskip=0 / chroma_qp_offset=-3 / threads=18 / lookahead_threads=3 / sliced_threads=0 / nr=0 / decimate=0 / interlaced=0 / bluray_compat=0 / constrained_intra=0 / fgo=0 / bframes=10 / b_pyramid=2 / b_adapt=2 / b_bias=0 / direct=3 / weightb=1 / open_gop=0 / weightp=2 / keyint=250 / keyint_min=24 / scenecut=40 / intra_refresh=0 / rc=2pass / mbtree=0 / bitrate=11488 / ratetol=1.0 / qcomp=0.70 / qpmin=0 / qpmax=69 / qpstep=4 / cplxblur=20.0 / qblur=0.5 / ip_ratio=1.40 / pb_ratio=1.30 / aq=1 / aq-strength=0.85 / aq-sensitivity=10.00 / aq-ifactor=1.00 / aq-pfactor=1.00 / aq-bfactor=1.00 / aq2=0
Language                       : Chinese
Default                        : Yes
Forced                         : No

Audio
ID                             : 2
Format                         : TrueHD
Codec ID                       : A_TRUEHD
Duration                       : 1 h 55 min
Bit rate mode                  : Variable
Bit rate                       : 3 096 kb/s
Maximum bit rate               : 5 040 kb/s
Channel(s)                     : 6 channels
Channel positions              : Front: L C R, Side: L R, LFE
Sampling rate                  : 96.0 kHz
Frame rate                     : 2 400.000 FPS (40 spf)
Compression mode               : Lossless
Stream size                    : 2.49 GiB (21%)
Language                       : Chinese
Default                        : Yes
Forced                         : No

Text #1
ID                             : 3
Format                         : ASS
Codec ID                       : S_TEXT/ASS
Codec ID/Info                  : Advanced Sub Station Alpha
Duration                       : 1 h 46 min
Bit rate                       : 221 b/s
Count of elements              : 1270
Compression mode               : Lossless
Stream size                    : 174 KiB (0%)
Title                          : 中英字幕
Language                       : Chinese
Default                        : Yes
Forced                         : No

Text #2
ID                             : 4
Format                         : ASS
Codec ID                       : S_TEXT/ASS
Codec ID/Info                  : Advanced Sub Station Alpha
Duration                       : 1 h 46 min
Bit rate                       : 98 b/s
Count of elements              : 1270
Compression mode               : Lossless
Stream size                    : 76.9 KiB (0%)
Title                          : 简体字幕
Language                       : Chinese
Default                        : No
Forced                         : No

Text #3
ID                             : 5
Format                         : ASS
Codec ID                       : S_TEXT/ASS
Codec ID/Info                  : Advanced Sub Station Alpha
Duration                       : 1 h 46 min
Bit rate                       : 98 b/s
Count of elements              : 1270
Compression mode               : Lossless
Stream size                    : 76.9 KiB (0%)
Title                          : 繁体字幕
Language                       : Chinese
Default                        : No
Forced                         : No

Text #4
ID                             : 6
Format                         : ASS
Codec ID                       : S_TEXT/ASS
Codec ID/Info                  : Advanced Sub Station Alpha
Duration                       : 1 h 46 min
Bit rate                       : 93 b/s
Count of elements              : 1270
Compression mode               : Lossless
Stream size                    : 73.3 KiB (0%)
Title                          : 英文字幕
Language                       : English
Default                        : No
Forced                         : No

Menu
00:00:00.000                   : en:00:00:00.000
00:06:12.750                   : en:00:06:12.750
00:11:53.458                   : en:00:11:53.458
00:16:20.458                   : en:00:16:20.458
00:21:21.833                   : en:00:21:21.833
00:26:30.875                   : en:00:26:30.875
00:33:06.625                   : en:00:33:06.625
00:37:34.000                   : en:00:37:34.000
00:43:19.125                   : en:00:43:19.125
00:50:11.208                   : en:00:50:11.208
00:57:22.625                   : en:00:57:22.625
01:01:42.125                   : en:01:01:42.125
01:06:19.250                   : en:01:06:19.250
01:11:45.750                   : en:01:11:45.750
01:17:08.083                   : en:01:17:08.083
01:22:43.375                   : en:01:22:43.375
01:26:37.166                   : en:01:26:37.166
01:34:41.500                   : en:01:34:41.500
01:40:40.500                   : en:01:40:40.500
01:46:36.000                   : en:01:46:36.000

 


磁力下载:magnet:?xt=urn:btih:503472267F15A7280A52F96DFF7920CA54ADD8B0
空天猎.Sky Hunter.2017.CN.BluRay.1920x802p.x264.TrueHD5.1-KOOK.[中英双字].torrent
最新回复 (0)
全部楼主
返回