黑社会 Election.2005.1080p.BluRay.x264-aBD 7.93GB 2013 香港 犯罪 BD-1080P

admin 6天前 2 只看Ta

Election.2005.1080p.BluRay.x264-aBD

◎译  名 黑社会/龙城岁月/选老坐

◎片  名 黑社會

◎年  代 2005

◎产  地 香港

◎类  别 犯罪/剧情/惊悚

◎语  言 汉语普通话/粤语

◎上映日期 2005-10-20(香港)

◎IMDb评分  7.1/10 from 8,163 users

◎IMDb链接  http://www.imdb.com/title/tt0434008/

◎豆瓣评分 7.9/10 from 70,206 users

◎豆瓣链接 https://movie.douban.com/subject/1309220/

◎ http://www.btbtt.co 

◎片  长 100 分钟/85 分钟(删减版)

◎导  演 杜琪峰 Johnnie To

◎主  演 任达华 Simon Yam

      梁家辉 Tony Leung Ka Fai

      古天乐 Louis Koo

      林雪 Suet Lam

      张家辉 Nick Cheung

      张兆辉 Siu-Fai Cheung

      林家栋 Ka Tung Lam

      王天林 Tian-lin Wang

      谭炳文 Ping-Man Tam

      邵美琪 Maggie Siu

      姜大卫 David Chiang

      尤勇 Yong You

      黄浩然 Ho-Yin Wong

      车保罗 Paul Che

      吴廷烨 Berg Ng

      郭锋 Fung Kwok

      王钟 Chung Wang

      陈少鹏 Siu-Pang Chan

      元彬 Bun Yuen

      甄懋强 Ronald Yan

      洪罗拔 Robert Hung

      余袁稳 Yu Yuen Yin

      黄志伟 Chi Wai Wong

      赵志诚 Chiu Chi Shing

      黄思恩 Sze Yan Wong

      林文伟 Wen-Wei Lin

      何汉州 Hoi Chau Ho

      唐培中 Pui Chung Tong

      何柱 Chu Ho

      元宝 Bo Yuen

      李日昇 Jonathan Yat-Sing Lee


◎简  介


  香港最大黑社会帮会“和联胜”举行两年一度的办事人选举,阿乐(任达华饰)与大D(梁家辉饰)作为两大地区领导,暗地里展开争夺宝座的努力,一众有投票权的元老亦为自身利益而明争暗斗,选举因此相当不顺利。

  结果,阿乐再次获选成为办事人,满心不服的大D决定挑战帮规,他要抢夺到象征最高权力的信物龙头棍,组织新帮会。五名小头目(古天乐、张兆辉、张家辉、林雪、林家栋饰)牵连其中,为争夺龙头棍展开连番内斗。最终鹿死谁手,一切不得而知。


◎获奖情况


  第58届戛纳电影节  (2005)

  主竞赛单元 金棕榈奖(提名) 杜琪峰


  第42届台北金马影展  (2005)

  金马奖 最佳剧情片(提名)

  金马奖 最佳导演(提名) 杜琪峰

  金马奖 最佳男主角(提名) 梁家辉

  金马奖 最佳男配角(提名) 王天林

  金马奖 最佳原著剧本 游乃海 / 叶天成

  金马奖 最佳摄影(提名) 郑兆强

  金马奖 最佳造型设计(提名) 张世杰

  金马奖 最佳动作设计(提名) 黄志伟

  金马奖 最佳原创配乐(提名) 罗大佑

  金马奖 最佳原创歌曲(提名) 罗大佑 / 林夕

  金马奖 最佳音效 莫美华 / 罗柏禹


  第25届香港电影金像奖  (2006)

  最佳电影

  最佳导演 杜琪峰

  最佳编剧 游乃海 / 叶天成

  最佳男主角 梁家辉

  最佳男主角(提名) 任达华

  最佳男配角(提名) 王天林

  最佳女配角(提名) 邵美琪

  最佳摄影(提名) 郑兆强

  最佳剪接(提名) 谭家明

  最佳原创电影音乐(提名) 罗大佑


  第6届华语电影传媒大奖  (2006)

  最佳电影

  最佳导演(提名) 杜琪峰

  最佳男主角 梁家辉

  最佳男主角(提名) 任达华

  最佳编剧(提名) 游乃海 / 叶天成


Video
ID                                       : 1
Format                                   : AVC
Format/Info                              : Advanced Video Codec
Format profile                           : High@L4.1
Format settings                          : CABAC / 5 Ref Frames
Format settings, CABAC                   : Yes
Format settings, ReFrames                : 5 frames
Codec ID                                 : V_MPEG4/ISO/AVC
Duration                                 : 1 h 39 min
Bit rate                                 : 9 865 kb/s
Width                                    : 1 920 pixels
Height                                   : 800 pixels
Display aspect ratio                     : 2.40:1
Frame rate mode                          : Constant
Frame rate                               : 24.000 FPS
Color space                              : YUV
Chroma subsampling                       : 4:2:0
Bit depth                                : 8 bits
Scan type                                : Progressive
Bits/(Pixel*Frame)                       : 0.268
Stream size                              : 6.72 GiB (85%)
Writing library                          : x264 core 67 r1134M b8808bf
Encoding settings                        : cabac=1 / ref=5 / deblock=1:-1:-1 / analyse=0x3:0x113 / me=umh / subme=7 / psy_rd=1.0:0.0 / mixed_ref=1 / me_range=16 / chroma_me=1 / trellis=2 / 8x8dct=1 / cqm=0 / deadzone=21,11 / chroma_qp_offset=-2 / threads=6 / nr=0 / decimate=1 / mbaff=0 / bframes=3 / b_pyramid=0 / b_adapt=2 / b_bias=0 / direct=3 / wpredb=1 / keyint=250 / keyint_min=25 / scenecut=40 / rc=2pass / bitrate=9865 / ratetol=1.0 / qcomp=0.60 / qpmin=10 / qpmax=51 / qpstep=4 / cplxblur=20.0 / qblur=0.5 / vbv_maxrate=50000 / vbv_bufsize=50000 / ip_ratio=1.40 / pb_ratio=1.30 / aq=1:1.00
Language                                 : Chinese
Default                                  : Yes
Forced                                   : No

Audio
ID                                       : 2
Format                                   : DTS
Format/Info                              : Digital Theater Systems
Codec ID                                 : A_DTS
Duration                                 : 1 h 39 min
Bit rate mode                            : Constant
Bit rate                                 : 1 509 kb/s
Channel(s)                               : 6 channels
Channel positions                        : Front: L C R, Side: L R, LFE
Sampling rate                            : 48.0 kHz
Frame rate                               : 93.750 FPS (512 SPF)
Bit depth                                : 16 bits
Compression mode                         : Lossy
Stream size                              : 1.05 GiB (13%)
Language                                 : Chinese
Default                                  : Yes
Forced                                   : No

Text
ID                                       : 3
Format                                   : UTF-8
Codec ID                                 : S_TEXT/UTF8
Codec ID/Info                            : UTF-8 Plain Text
Language                                 : English
Default                                  : Yes
Forced                                   : No





磁力下载:magnet:?xt=urn:btih:16EE6318AA39FCFBBE04699996566E52BC683DB0
Election.2005.1080p.BluRay.x264-aBD[btyuan.com].torrent
最新回复 (0)
全部楼主
返回