机动部队 PTU.2003.1080p.Bluray.x264-aBD 7.95GB 更早 香港 犯罪 BD-1080P

admin 8天前 12 只看Ta

PTU.2003.1080p.Bluray.x264-aBD

◎译  名 机动部队

◎片  名 PTU

◎年  代 2003

◎产  地 香港

◎类  别 犯罪/剧情

◎语  言 粤语

◎上映日期 2003-04-17(香港)

◎IMDb评分  6.9/10 from 3,504 users

◎IMDb链接  http://www.imdb.com/title/tt0250638/

◎豆瓣评分 7.9/10 from 39,363 users

◎豆瓣链接 https://movie.douban.com/subject/1302434/

◎ http://www.btbtt.co 

◎片  长 88分钟

◎导  演 杜琪峰 Johnnie To

◎主  演 任达华 Simon Yam

      邵美琪 Maggie Siu

      林雪 Suet Lam

      黄卓玲 Ruby Wong

      黄浩然 Raymond Wong Ho-Yin

      高雄 Eddy Ko

      卢海鹏 Hoi-Pang Lo


◎简  介


  反黑组警长肥沙(林雪 饰),不慎丢失手枪。这件事非同小可,如果手枪被匪徒用去行凶,肥沙将大祸临头。PTU(警察机动部队)警官何文展(任达华 饰)出于义气,答应一定会在天亮之前寻回手枪,带几名手下开展了寻枪行动。另一方面,却在横生枝节:警员Kat(邵美琪 饰)死守纪律,坚持要将此事汇报上级处理;而在同一晚,CID的Madam张(黄卓玲 饰)在接手一单黑社会谋杀案时,怀疑肥沙与黑社会有染,由此与PTU发生意见分歧。人与人,部门与部门之间的矛盾、争斗和角力,在夜幕中徐徐拉开。而第二天清早,揭晓的真相,原来都在他们的意料之外……


◎获奖情况


  第40届台北金马影展  (2003)

  金马奖 最佳剧情片(提名)

  金马奖 最佳导演(提名) 杜琪峰

  金马奖 最佳男主角(提名) 任达华

  金马奖 最佳男配角(提名) 林雪

  金马奖 最佳原著剧本 欧健儿 / 游乃海

  金马奖 最佳摄影(提名) 郑兆强

  金马奖 最佳造型设计(提名) 叶淑华

  金马奖 最佳原创配乐(提名) 钟志荣

  金马奖 最佳剪辑(提名) 罗永昌

  金马奖 最佳音效(提名) 卓保怡

  金马奖 最佳视觉效果(提名) 马文现


  第23届香港电影金像奖  (2004)

  最佳电影(提名)

  最佳导演 杜琪峰

  最佳编剧(提名) 欧健儿 / 游乃海

  最佳男主角(提名) 任达华

  最佳女配角(提名) 邵美琪

  最佳摄影(提名) 郑兆强

  最佳剪接(提名) 罗永昌

  最佳原创电影音乐(提名) 钟志荣

  最佳音响效果(提名) 卓保怡

  最佳视觉效果(提名) 马文现


  第7届中国长春电影节  (2005)

  金鹿奖 最佳华语故事片(提名)

  金鹿奖 最佳导演(提名) 杜琪峰


  第4届华语电影传媒大奖  (2004)

  最佳电影(提名)

  最佳导演 杜琪峰

  最佳男主角(提名) 任达华

  最佳女配角(提名) 邵美琪

  最佳编剧(提名) 欧健儿 / 游乃海


Video
ID                                       : 1
Format                                   : AVC
Format/Info                              : Advanced Video Codec
Format profile                           : High@L4.1
Format settings                          : CABAC / 5 Ref Frames
Format settings, CABAC                   : Yes
Format settings, ReFrames                : 5 frames
Codec ID                                 : V_MPEG4/ISO/AVC
Duration                                 : 1 h 27 min
Bit rate                                 : 12.3 Mb/s
Width                                    : 1 920 pixels
Height                                   : 816 pixels
Display aspect ratio                     : 2.35:1
Frame rate mode                          : Constant
Frame rate                               : 24.000 FPS
Color space                              : YUV
Chroma subsampling                       : 4:2:0
Bit depth                                : 8 bits
Scan type                                : Progressive
Bits/(Pixel*Frame)                       : 0.327
Stream size                              : 7.40 GiB (93%)
Writing library                          : x264 core 66 r1113M cc4f807
Encoding settings                        : cabac=1 / ref=5 / deblock=1:-1:-1 / analyse=0x3:0x113 / me=umh / subme=7 / psy_rd=1.0:0.0 / mixed_ref=1 / me_range=16 / chroma_me=1 / trellis=2 / 8x8dct=1 / cqm=0 / deadzone=21,11 / chroma_qp_offset=-2 / threads=12 / nr=0 / decimate=1 / mbaff=0 / bframes=3 / b_pyramid=0 / b_adapt=2 / b_bias=0 / direct=3 / wpredb=1 / keyint=250 / keyint_min=25 / scenecut=40(pre) / rc=2pass / bitrate=12305 / ratetol=1.0 / qcomp=0.60 / qpmin=10 / qpmax=51 / qpstep=4 / cplxblur=20.0 / qblur=0.5 / vbv_maxrate=50000 / vbv_bufsize=50000 / ip_ratio=1.40 / pb_ratio=1.30 / aq=1:1.00
Language                                 : Chinese
Default                                  : Yes
Forced                                   : No

Audio
ID                                       : 2
Format                                   : AC-3
Format/Info                              : Audio Coding 3
Codec ID                                 : A_AC3
Duration                                 : 1 h 27 min
Bit rate mode                            : Constant
Bit rate                                 : 640 kb/s
Channel(s)                               : 6 channels
Channel positions                        : Front: L C R, Side: L R, LFE
Sampling rate                            : 48.0 kHz
Frame rate                               : 31.250 FPS (1536 SPF)
Bit depth                                : 16 bits
Compression mode                         : Lossy
Stream size                              : 402 MiB (5%)
Language                                 : Chinese
Service kind                             : Complete Main
Default                                  : Yes
Forced                                   : No

Text
ID                                       : 3
Format                                   : UTF-8
Codec ID                                 : S_TEXT/UTF8
Codec ID/Info                            : UTF-8 Plain Text
Language                                 : English
Default                                  : Yes
Forced                                   : No




磁力下载:magnet:?xt=urn:btih:2182E581ADFA4E6A31D114EA71766DE897EF6A7C
PTU.2003.1080p.Bluray.x264-aBD[btyuan.com].torrent
最新回复 (0)
全部楼主
返回