人间·小团圆/香港仔 Aberdeen.2014.1080p.BluRay.X264-aBD 6.55GB 2014 香港 剧情 BD-1080P

admin 8天前 0 只看Ta

Aberdeen.2014.1080p.BluRay.X264-aBD

◎译  名 人间·小团圆/人间小团圆/曼珠沙华

◎片  名 香港仔

◎年  代 2014

◎产  地 香港/中国大陆

◎类  别 剧情

◎语  言 汉语普通话/粤语

◎上映日期 2014-05-08(中国大陆)/2014-05-08(香港)

◎IMDb评分  6.3/10 from 535 users

◎IMDb链接  http://www.imdb.com/title/tt3429014/

◎豆瓣评分 5.4/10 from 58,646 users

◎豆瓣链接 https://movie.douban.com/subject/24736526/

◎ http://www.btbtt.co 

◎片  长 93分钟(中国大陆)/96分钟(香港)

◎导  演 彭浩翔 Ho-Cheung Pang

◎主  演 古天乐 Louis Koo

      曾志伟 Eric Tsang

      杨千嬅 Miriam Yeung

      梁咏琪 Gigi Leung

      吴孟达 Man Tat Ng

      吴家丽 Carrie Ng

      蔡洁 Jacky Cai

      李汶桂 Man-Kwai Lee

      余文乐 Shawn Yue

      杜汶泽 Chapman To

      陈静 Dada Chan

      郑希怡 Hei-Yi Cheng


◎简  介


  郑惠清(杨千嬅 饰)是一名专职导游,她的丈夫邱健章(曾志伟 饰)是一名开诊所的医师,夫妻两人貌合神离,更出现了第三者(蔡洁 饰)。惠清弟弟郑伟滔(古天乐 饰)是著名的补习老师,妻子恩恩(梁咏琪 饰)是一个事业遇到瓶颈的模特,他们的孩子“小猪”虽然听话乖巧,但是相貌奇丑跟 夫妇二人完全不同,这令伟滔十分郁闷。老父亲郑东(吴孟达 饰)在妻子过世后与夜总会妈妈桑TA姐(吴家丽 饰)相恋,这令儿子伟滔冷眼相待。父子关系恶劣之余姐姐惠清更有解不开的心结,一家人的关系变得疏远。一次鲸鱼搁浅事件终于令一家人能够共同坦然面对生活的困境。


◎获奖情况


  第51届台北金马影展  (2014)

  金马奖 最佳男配角(提名) 吴孟达

  金马奖 最佳原创歌曲(提名)


  第34届香港电影金像奖  (2015)

  最佳电影(提名) 梁启缘 / 彭浩翔 / 王中磊 / 陈国富

  最佳编剧(提名) 彭浩翔

  最佳男配角(提名) 吴孟达

  最佳新演员(提名) 蔡洁

  最佳美术指导(提名)

  最佳原创电影音乐(提名)

  最佳原创电影歌曲


  第15届华语电影传媒大奖  (2015)

  最佳男配角(提名) 吴孟达

  最佳女配角(提名) 梁咏琪


Video
ID                                       : 1
Format                                   : AVC
Format/Info                              : Advanced Video Codec
Format profile                           : High@L4.1
Format settings                          : CABAC / 5 Ref Frames
Format settings, CABAC                   : Yes
Format settings, ReFrames                : 5 frames
Codec ID                                 : V_MPEG4/ISO/AVC
Duration                                 : 1 h 36 min
Bit rate                                 : 9 049 kb/s
Width                                    : 1 920 pixels
Height                                   : 816 pixels
Display aspect ratio                     : 2.35:1
Frame rate mode                          : Constant
Frame rate                               : 24.000 FPS
Color space                              : YUV
Chroma subsampling                       : 4:2:0
Bit depth                                : 8 bits
Scan type                                : Progressive
Bits/(Pixel*Frame)                       : 0.241
Stream size                              : 5.98 GiB (91%)
Writing library                          : x264 core 142 r2409 d6b4e63
Encoding settings                        : cabac=1 / ref=5 / deblock=1:-1:-1 / analyse=0x3:0x113 / me=umh / subme=7 / psy=1 / psy_rd=1.00:0.00 / mixed_ref=1 / me_range=16 / chroma_me=1 / trellis=1 / 8x8dct=1 / cqm=0 / deadzone=21,11 / fast_pskip=1 / chroma_qp_offset=-2 / threads=12 / lookahead_threads=2 / sliced_threads=0 / nr=0 / decimate=1 / interlaced=0 / bluray_compat=0 / constrained_intra=0 / bframes=3 / b_pyramid=2 / b_adapt=2 / b_bias=0 / direct=3 / weightb=1 / open_gop=0 / weightp=2 / keyint=250 / keyint_min=24 / scenecut=40 / intra_refresh=0 / rc_lookahead=40 / rc=2pass / mbtree=1 / bitrate=9049 / ratetol=1.0 / qcomp=0.60 / qpmin=0 / qpmax=69 / qpstep=4 / cplxblur=20.0 / qblur=0.5 / vbv_maxrate=50000 / vbv_bufsize=50000 / nal_hrd=none / filler=0 / ip_ratio=1.40 / aq=1:1.00
Language                                 : Chinese
Default                                  : Yes
Forced                                   : No

Audio
ID                                       : 2
Format                                   : AC-3
Format/Info                              : Audio Coding 3
Codec ID                                 : A_AC3
Duration                                 : 1 h 36 min
Bit rate mode                            : Constant
Bit rate                                 : 640 kb/s
Channel(s)                               : 6 channels
Channel positions                        : Front: L C R, Side: L R, LFE
Sampling rate                            : 48.0 kHz
Frame rate                               : 31.250 FPS (1536 SPF)
Bit depth                                : 16 bits
Compression mode                         : Lossy
Stream size                              : 443 MiB (7%)
Language                                 : Chinese
Service kind                             : Complete Main
Default                                  : Yes
Forced                                   : No

Text
ID                                       : 3
Format                                   : UTF-8
Codec ID                                 : S_TEXT/UTF8
Codec ID/Info                            : UTF-8 Plain Text
Language                                 : English
Default                                  : Yes
Forced                                   : No




磁力下载:magnet:?xt=urn:btih:3DB97D3C9AD00F37060D6B972551352E731D02F7
Aberdeen.2014.1080p.BluRay.X264-aBD[btyuan.com].torrent
最新回复 (0)
全部楼主
返回